博文 > ffmpeg获取视频信息

ffmpeg获取视频信息

Php 10002018-07-12 14:39:00

php使用ffmpeg获取视频信息

可以获取到视频的分辨率、文件大小、播放时长、编码格式、视频格式、音频编码、音频采样频率、等…..

废话不多说,直接上代码…

  1. /**
  2. * Name: ffmpeg.php.
  3. * Author: JiaMeng <666@majiameng.com>
  4. * Date: 2018/7/12 14:39
  5. * Description: ffmpeg.php.
  6. */
  7. class ffmpeg{
  8. const FFMPEG_COMMAND = '/usr/local/ffmpeg/bin/ffmpeg -i %s 2>&1';//操作ffmpeg命令
  9. /**
  10. * Description: 获取视频信息
  11. * Author: JiaMeng <666@majiameng.com>
  12. * @param string $file 视频文件路径
  13. * @return array
  14. */
  15. static function video_info($file) {
  16. /** 通过使用输出缓冲,获取到ffmpeg所有输出的内容 */
  17. ob_start();
  18. passthru(sprintf(self::FFMPEG_COMMAND, $file));
  19. $info = ob_get_contents();
  20. ob_end_clean();
  21. $result = array();
  22. // Duration: 01:24:12.73, start: 0.000000, bitrate: 456 kb/s
  23. if (preg_match("/Duration: (.*?), start: (.*?), bitrate: (\d*) kb\/s/", $info, $match)) {
  24. $result['duration'] = $match[1]; // 提取出播放时间
  25. $da = explode(':', $match[1]);
  26. $result['seconds'] = $da[0] * 3600 + $da[1] * 60 + $da[2]; // 转换为秒
  27. $result['start'] = $match[2]; // 开始时间
  28. $result['bitrate'] = $match[3]; // bitrate 码率 单位 kb
  29. }
  30. // Stream #0.1: Video: rv40, yuv420p, 512x384, 355 kb/s, 12.05 fps, 12 tbr, 1k tbn, 12 tbc
  31. if (preg_match("/Video: (.*?), (.*?), (.*?), (.*?)[,\s]/", $info, $match)) {
  32. $result['vcodec'] = $match[1]; // 编码格式
  33. $result['vformat'] = $match[2]; // 视频格式
  34. $result['resolution'] = $match[3]; // 分辨率
  35. if(strpos($result['resolution'],'x') === false){
  36. // Stream #0:0(und): Video: h264 (Constrained Baseline) (avc1 / 0x31637661), yuv420p(tv, smpte170m/smpte170m/bt709), 320x240, 80 kb/s, 29.65 fps, 29.97 tbr, 90k tbn, 59.31 tbc (default)
  37. $result['resolution'] = $match[4]; // 分辨率
  38. }
  39. $a = explode('x', $result['resolution']);
  40. $result['width'] = $a[0];
  41. $result['height'] = $a[1];
  42. }
  43. // Stream #0.0: Audio: cook, 44100 Hz, stereo, s16, 96 kb/s
  44. if (preg_match("/Audio: (\w*), (\d*) Hz/", $info, $match)) {
  45. $result['acodec'] = $match[1]; // 音频编码
  46. $result['asamplerate'] = $match[2]; // 音频采样频率
  47. }
  48. if (isset($result['seconds']) && isset($result['start'])) {
  49. $result['play_time'] = $result['seconds'] + $result['start']; // 实际播放时间
  50. }
  51. $result['size'] = filesize($file); // 文件大小
  52. return $result;
  53. }
  54. }

怎么用这个类就不用我说了把